<?xml version="1.0" standalone="no"?>
<!DOCTYPE svg PUBLIC "-//W3C//DTD SVG 1.1//EN" "http://www.w3.org/Graphics/SVG/1.1/DTD/svg11.dtd">
<svg xmlns="http://www.w3.org/2000/svg">
<metadata>Copyright (C) 2023 by original authors @ fontello.com</metadata>
<defs>
<font id="bijoux" horiz-adv-x="1000" >
<font-face font-family="bijoux" font-weight="400" font-stretch="normal" units-per-em="1000" ascent="850" descent="-150" />
<missing-glyph horiz-adv-x="1000" />
<glyph glyph-name="bangles" unicode="&#xe800;" d="M585 750c-32 0-65-7-99-21-69-27-145-79-216-149-70-71-121-146-149-216-14-34-21-67-21-98 0-32 10-62 32-84 18-19 43-28 69-31 3-26 12-50 31-69l0 0c18-19 43-28 69-31 3-26 12-51 31-69 22-22 52-32 83-32 32 0 65 7 99 21 69 27 145 79 216 149 70 71 122 147 149 216 14 34 21 67 21 99 0 31-10 61-32 83-18 19-43 28-69 31-3 26-12 51-31 69-18 19-43 28-69 31-3 26-12 51-31 69-22 22-52 32-83 32z m-1-67c19 0 30-5 37-12 7-7 12-18 12-37 1-19-5-45-16-74-23-57-70-128-135-192-64-65-135-112-192-135-29-11-55-17-74-16-19 0-30 5-37 12-7 7-12 18-12 37-1 19 5 45 16 74 23 57 70 128 135 192 64 65 135 112 192 135 29 11 55 17 74 16z m17-49c-5-2-10-3-15-5-71-28-147-81-216-149-76-77-129-158-154-230 0 0 1 0 2 0 19 0 48 8 80 24 25 48 64 103 120 158 51 52 106 93 159 120 18 37 24 66 24 82z m93-51c12-2 21-6 27-12 7-7 12-18 12-37 1-19-5-45-16-74-23-57-70-128-135-192-64-65-135-112-192-135-29-11-55-17-74-16-19 0-30 5-37 12-6 6-10 15-11 27 15 4 30 9 46 15 28 11 57 26 86 45a33 33 0 0 1 33-33 33 33 0 0 1 34 34 33 33 0 0 1-22 31c29 21 57 45 85 72 1 2 3 4 5 6a33 33 0 0 1-2-9 33 33 0 0 1 34-34 33 33 0 0 1 33 34 33 33 0 0 1-33 33 33 33 0 0 1-12-2c30 33 57 67 78 101a33 33 0 0 1 34-32 33 33 0 0 1 33 33 33 33 0 0 1-33 33 33 33 0 0 1-15-3c11 19 20 38 27 56 6 16 11 31 15 47z m100-100c12-2 21-6 27-12 7-7 12-18 12-37 1-19-5-45-16-74-23-57-70-128-135-192-64-65-135-112-192-135-29-11-55-17-74-16-19 0-30 5-37 12-6 6-10 15-11 27 15 4 30 9 46 15 70 27 145 79 216 149 70 71 122 147 149 216 6 16 11 31 15 47z" horiz-adv-x="1000" />

<glyph glyph-name="bracelet" unicode="&#xe801;" d="M500 750a67 67 0 0 1-67-65 67 67 0 0 1-60 40 67 67 0 0 1-67-67 67 67 0 0 1 4-24 67 67 0 0 1-46 18 67 67 0 0 1-66-66 67 67 0 0 1 18-46 67 67 0 0 1-24 4 67 67 0 0 1-67-66 67 67 0 0 1 40-61 67 67 0 0 1-65-67 67 67 0 0 1 65-67 67 67 0 0 1-40-60 67 67 0 0 1 67-67 67 67 0 0 1 24 4 67 67 0 0 1-18-46 67 67 0 0 1 66-66 67 67 0 0 1 46 18 67 67 0 0 1-4-24 67 67 0 0 1 67-67 67 67 0 0 1 60 40 67 67 0 0 1 67-65 67 67 0 0 1 67 65 67 67 0 0 1 61-40 67 67 0 0 1 66 67 67 67 0 0 1-4 24 67 67 0 0 1 46-18 67 67 0 0 1 66 66 67 67 0 0 1-18 46 67 67 0 0 1 24-4 67 67 0 0 1 67 67 67 67 0 0 1-40 60 67 67 0 0 1 65 67 67 67 0 0 1-65 67 67 67 0 0 1 40 61 67 67 0 0 1-67 66 67 67 0 0 1-24-4 67 67 0 0 1 18 46 67 67 0 0 1-66 66 67 67 0 0 1-46-18 67 67 0 0 1 4 24 67 67 0 0 1-66 67 67 67 0 0 1-61-40 67 67 0 0 1-67 65z m61-93a67 67 0 0 1 67-66 67 67 0 0 1 46 19 67 67 0 0 1-5-24 67 67 0 0 1 67-67 67 67 0 0 1 24 5 67 67 0 0 1-19-46 67 67 0 0 1 65-67 67 67 0 0 1-39-61 67 67 0 0 1 40-61 67 67 0 0 1-66-66 67 67 0 0 1 19-47 67 67 0 0 1-24 5 67 67 0 0 1-67-67 67 67 0 0 1 5-24 67 67 0 0 1-46 19 67 67 0 0 1-67-65 67 67 0 0 1-61 39 67 67 0 0 1-61-39 67 67 0 0 1-66 65 67 67 0 0 1-47-19 67 67 0 0 1 5 24 67 67 0 0 1-67 67 67 67 0 0 1-24-5 67 67 0 0 1 19 47 67 67 0 0 1-65 66 67 67 0 0 1 39 61 67 67 0 0 1-39 61 67 67 0 0 1 65 67 67 67 0 0 1-19 46 67 67 0 0 1 24-5 67 67 0 0 1 67 67 67 67 0 0 1-5 24 67 67 0 0 1 47-19 67 67 0 0 1 66 65 67 67 0 0 1 61-39 67 67 0 0 1 61 40z" horiz-adv-x="1000" />

<glyph glyph-name="diamond-2" unicode="&#xe802;" d="M500 750c-221 0-400-179-400-400 0-221 179-400 400-400 221 0 400 179 400 400 0 221-179 400-400 400z m0-33l167-100 100 0 0-100 100-167-100-167 0-100-100 0-167-100-167 100-100 0 0 100-100 167 100 167 0 100 100 0 167 100z m-167-100l32-125 135 58 136-58 31 125-167-34-167 34z m-100-100l34-167-34-167 125 32-58 135 58 136-125 31z m100-434l167 34 167-34-31 125-136-58-135 58-32-125z m434 100l-34 167 34 167-125-31 58-136-58-135 125-32z" horiz-adv-x="1000" />

<glyph glyph-name="diamond-heart" unicode="&#xe803;" d="M300 717a33 33 0 0 1-26-13 33 33 0 0 1-1 0l-227-227a33 33 0 0 1 0-53 33 33 0 0 1 0-1l428-427a33 33 0 0 1 52 0 33 33 0 0 1 1 0l427 428a33 33 0 0 1 0 52 33 33 0 0 1 0 1l-228 227a33 33 0 0 1-26 13 33 33 0 0 1-26-13 33 33 0 0 1-1 0l-173-173-174 173a33 33 0 0 1-26 13z m-33-114l0-86-34-34-86 0 120 120z m66 0l134-133 0-87-134 134 0 86z m334 0l0-86-134-134 0 87 134 133z m66 0l120-120-86 0-34 34 0 86z m-586-186l86 0 234-234 0-86-320 320z m620 0l86 0-320-320 0 86 234 234z" horiz-adv-x="1000" />

<glyph glyph-name="diamond" unicode="&#xe804;" d="M733 684a33 33 0 0 1-7-1l-224 0-4 0-226 0a33 33 0 0 1-5 1 33 33 0 0 1-29-16l-194-226a33 33 0 0 1 2-52l430-430a33 33 0 0 1 0 0l0 0a33 33 0 0 1 6-5 33 33 0 0 1 0 0 33 33 0 0 1 2-1 33 33 0 0 1 1 0 33 33 0 0 1 12-4 33 33 0 0 1 4 0 33 33 0 0 1 1 0 33 33 0 0 1 2 0 33 33 0 0 1 0 0 33 33 0 0 1 0 0 33 33 0 0 1 3 1 33 33 0 0 1 3 0 33 33 0 0 1 0 1 33 33 0 0 1 1 0 33 33 0 0 1 5 2 33 33 0 0 1 1 0 33 33 0 0 1 2 2 33 33 0 0 1 0 0 33 33 0 0 1 5 4l0 0a33 33 0 0 1 0 0l430 430a33 33 0 0 1 2 52l-193 225a33 33 0 0 1-30 17z m-422-67l124 0-89-125-35 125z m254 0l124 0-35-125-89 125z m-65-24l102-143-204 0 102 143z m-248-12l37-131-150 0 113 131z m496 0l113-131-150 0 37 131z m-601-198l163 0 103-265-266 265z m235 0l236 0-118-307-118 307z m308 0l163 0-265-265 102 265z" horiz-adv-x="1000" />

<glyph glyph-name="earring" unicode="&#xe805;" d="M899 784a33 33 0 0 1-23-10l-33-34a100 100 0 0 1-43 10 100 100 0 0 1-100-100 100 100 0 0 1 10-43l-85-85c-26 18-58 28-92 28-37 0-72-13-100-34l0-80 100-57c16-9 22-29 13-45-7-11-18-17-29-17-6 0-12 1-17 4l-67 38 0-90 67-38c16-9 21-29 12-45-6-11-17-17-29-17-5 0-11 1-16 4l-34 20 0-76c0-19-15-34-33-34-18 0-33 15-33 34l0 76-34-20c-16-9-36-3-45 13-9 16-4 36 12 45l67 38 0 90-67-38c-16-9-36-3-46 13-9 15-3 36 13 45l100 57 0 80c-28 21-63 34-100 34-92 0-167-75-167-167 0-236 300-433 300-433 0 0 300 203 300 433 0 34-10 66-28 92l85 85a100 100 0 0 1 43-10 100 100 0 0 1 100 100 100 100 0 0 1-10 43l34 33a33 33 0 0 1-25 58z" horiz-adv-x="1000" />

<glyph glyph-name="emerald" unicode="&#xe806;" d="M328 783c-18 0-35-7-47-19l-95-94c-12-13-19-30-19-48l0-544c0-18 7-35 19-47l95-95c12-12 29-19 47-19l340 0c20 0 39 9 52 25l99 123c9 12 14 27 14 42l0 515c0 18-7 35-19 48l-94 94c-13 12-30 19-48 19l-344 0z m105-100l134 0 0-100 83 84 67-67-84-83 100-50 0-234-100-50 84-83-67-67-83 84 0-100-134 0 0 100-83-84-67 67 84 83-100 50 0 234 100 50-84 83 67 67 83-84 0 100z m0-100l-66-66 0-334 66-66 134 0 66 66 0 334-66 66-134 0z" horiz-adv-x="1000" />

<glyph glyph-name="leather-bracelet" unicode="&#xe807;" d="M671 750c-35-1-72-11-112-29-79-34-167-96-251-179-83-83-145-172-179-251-17-40-28-77-29-112-1-34 8-68 32-92 19-19 98-98 98-98l1 1c2-3 3-6 6-8 24-24 58-33 92-32 35 1 72 11 112 29 79 34 167 96 251 179 83 84 145 172 179 251 18 40 28 77 29 112 1 34-8 68-32 92-2 2-4 4-6 5l0 1c0 0-80 80-99 99-24 24-58 33-92 32z m-178-150c22 0 40-18 40-40 0-14-7-26-17-33-35-26-69-56-103-90-27-27-51-54-73-81l0 0c-8-10-19-17-33-17-22 0-40 18-40 40 0 7 2 13 4 19 25 32 53 65 85 97 38 38 78 71 116 99 6 4 13 6 21 6z m295-22c16-1 26-5 33-12 8-8 13-21 12-43 0-23-8-53-23-87-10-25-26-52-43-79l0 157c9 22 16 44 21 64z m-74-13c-26-72-86-167-174-255-88-88-183-148-255-174 3 8 6 16 10 24 29 68 87 152 165 230 78 78 162 136 230 165 8 4 16 7 24 10z m-14-169l0-130c-17-20-36-41-55-60-15-15-30-29-45-42l0 113c38 39 72 79 100 119z m-167-183l0-100a33 33 0 0 1 1-3c-35-25-69-46-101-61l0 88c34 21 67 47 100 76z m-166-116l0-74c-15-4-28-6-40-6-22-1-35 4-43 12-7 7-11 17-12 33 30 7 62 19 95 35z" horiz-adv-x="1000" />

<glyph glyph-name="necklace" unicode="&#xe808;" d="M133 717a33 33 0 0 1-33-34c0-266 158-477 367-498l0-46-67-89 100-133 100 133-67 89 0 46c209 21 367 232 367 498a33 33 0 1 1-67 0c0-237-134-410-300-431a33 33 0 0 1-33 32 33 33 0 0 1-33-32c-166 21-300 194-300 431a33 33 0 0 1-34 34z" horiz-adv-x="1000" />

<glyph glyph-name="piercing" unicode="&#xe809;" d="M500 750c-221 0-400-179-400-400 0-161 96-300 234-363 0 23 6 46 15 66-108 55-182 168-182 297 0 184 149 333 333 333 184 0 333-149 333-333 0-129-74-242-182-297 9-20 15-42 15-66 138 63 234 202 234 363 0 221-179 400-400 400z m0-667a100 100 0 0 1-100-100 100 100 0 0 1 100-100 100 100 0 0 1 100 100 100 100 0 0 1-100 100z" horiz-adv-x="1000" />

<glyph glyph-name="ring-back-view" unicode="&#xe80a;" d="M500 750c-88 0-160-68-166-154-176-46-301-161-301-296 0-175 209-317 467-317 258 0 467 142 467 317 0 135-125 250-301 296-6 86-78 154-166 154z m0-51l100-58 0-32c-32 5-66 8-100 8-34 0-68-3-100-8l0 32 100 58z m0-149c35 0 68-3 100-8 20-4 38-8 56-13 125-35 211-109 211-196 0-119-164-216-367-216-202 0-367 97-367 216 0 87 86 161 210 196 18 5 37 9 57 13 32 5 65 8 100 8z m-25-67c-35-2-67-7-96-14 30-32 73-52 121-52 48 0 91 20 121 52-29 7-61 12-95 14l-26-15-25 15z" horiz-adv-x="1000" />

<glyph glyph-name="ring-details" unicode="&#xe80b;" d="M667 783c0 0-1-46-1-53 47-27 87-63 120-106 9 41 14 83 14 126l0 33-133 0z m-200-66c-23 0-46-3-67-7-11-2-22-5-32-8-11-4-21-7-31-12-10-4-20-8-29-14-9-5-19-10-28-16-8-6-17-13-25-20-17-13-32-28-45-45 0 0 0 0 0 0-7-8-14-16-20-25 0 0 0 0 0 0-6-9-11-18-16-28-5-9-10-19-14-29 0 0 0 0 0 0-5-10-8-20-12-31 0 0 0 0 0 0-3-10-6-21-8-31 0 0 0-1 0-1-4-21-7-44-7-67 0-18 2-37 5-55-13 3-25 7-38 11l-33 11 0-138c0 0 13-7 33-12 32-8 66-13 100-15 3-5 6-9 10-14 13-16 28-31 45-45 0 0 0 0 0 0 8-6 17-13 25-19 0 0 1 0 1 0 8-6 18-12 27-17 9-5 19-9 29-14 0 0 0 0 0 0 10-4 20-8 31-11 0 0 0 0 0 0 10-3 21-6 32-8 0 0 0 0 0 0 21-5 44-7 67-7 23 0 45 2 67 7 0 0 0 0 0 0 11 2 21 5 32 8 10 3 20 7 30 11 20 9 39 19 57 31 8 6 17 12 25 18l132-132a33 33 0 1 1 47 47l-132 133c6 7 12 16 18 24 12 18 22 37 31 57 0 0 0 0 0 0 4 10 8 20 11 30 0 0 0 0 0 0 3 11 6 21 8 32 0 0 0 0 0 0 5 22 7 44 7 67 0 23-2 46-7 67 0 0 0 1 0 1-2 10-5 21-8 31 0 0 0 0 0 0-3 11-7 21-11 31 0 0 0 0 0 0-4 10-9 20-14 29-5 10-11 19-17 28-6 9-12 17-19 25 0 0 0 0 0 0-14 17-29 32-45 45-9 7-17 14-26 20 0 0 0 0 0 0-18 12-37 22-57 30 0 0 0 0 0 0-10 5-20 8-30 12 0 0 0 0 0 0-11 3-21 6-32 8 0 0 0 0 0 0-22 4-44 7-67 7z m0-67c9 0 18 0 27-1 0 0 0 0 0 0 30-3 58-11 84-23-48-131-167-228-311-241 0 0 0-1 0-2 0-105 61-196 150-239 126 38 236 116 315 218-10-128-111-231-238-244-9-1-18-1-27-1-9 0-19 0-27 1-1 0-1 0-1 0-9 1-17 2-26 4-113 23-200 118-212 234 0 0 0 0 0 0 0 9-1 18-1 27 0 10 1 19 1 28 0 0 0 0 0 0 1 9 3 17 4 26 22 104 104 186 208 208 17 3 35 5 54 5z m147-162c3 0 6-1 10-2 11-4 21-13 30-26 20-28 17-56-6-72-18-12-39-11-51 2l21 15c5-4 12-4 18 0 11 7 10 23-2 39 0 0 0 0 0 0-1-1-1-1-1-1 2-11-3-21-13-27-17-12-37-8-49 9-12 18-7 41 14 55 9 7 19 9 29 8z m-5-22c-4 1-8 0-12-3-8-5-10-15-5-23 5-8 15-9 23-4 8 5 10 15 5 23-3 4-7 6-11 7z m-83-51c4 0 7-1 10-2 11-4 22-13 31-26 19-29 17-56-7-72-18-12-39-12-51 2l22 14c5-3 12-3 17 1 11 7 11 23-1 39 0 0-1-1-1-1 0 0 0 0 0 0 1-11-4-21-14-28-16-11-37-7-48 10-13 18-7 41 13 55 10 7 20 9 29 8z m-4-22c-5 1-9 0-13-3-8-5-10-15-4-23 5-8 15-10 23-4 8 5 10 15 4 23-2 4-6 6-10 7z m-92-34c3 0 6-1 9-2 12-4 22-13 31-26 20-29 17-56-7-72-17-12-38-12-51 2l22 14c5-3 12-3 18 1 11 7 10 23-2 39 0 0 0 0 0-1-1 0-1 0-1 0 2-11-3-21-13-28-17-11-38-7-49 10-13 18-7 41 14 55 9 7 19 9 29 8z m-5-22c-4 1-9 0-12-3-8-5-10-15-5-23 5-8 15-10 23-4 8 5 10 15 5 23-3 4-7 6-11 7z" horiz-adv-x="1000" />

<glyph glyph-name="ring-front-view" unicode="&#xe80c;" d="M500 683c-258 0-467-141-467-316 0-118 95-220 235-275-1 8-1 16-1 25 0 38 9 73 25 105-96 39-159 104-159 178 0 120 165 217 367 217 203 0 367-97 367-217 0-74-63-139-159-178 16-32 25-67 25-105 0-9 0-17-1-25 140 55 235 157 235 275 0 175-209 316-467 316z m0-400c-92 0-167-74-167-166 0-92 75-167 167-167 92 0 167 75 167 167 0 92-75 166-167 166z m0-51l100-58 0-115-100-58-100 58 0 115 100 58z" horiz-adv-x="1000" />

<glyph glyph-name="ring-side-view" unicode="&#xe80d;" d="M500 817l-167-67 67-133 200 0 67 133-167 67z m-183-183c-110-64-184-182-184-317 0-202 165-367 367-367 202 0 367 165 367 367 0 135-74 253-184 317l-30-60c88-52 147-148 147-257 0-166-135-300-300-300-165 0-300 134-300 300 0 109 59 205 147 257l-30 60z" horiz-adv-x="1000" />

<glyph glyph-name="ruby" unicode="&#xe80e;" d="M500 683l200-100 167-100 0-266-167-100-200-100c79 0 144 5 195 11 103 13 156 30 156 30 0 0 33 48 59 132 13 44 23 97 23 160 0 63-10 117-23 160-26 84-59 132-59 132 0 0-53 17-156 30-51 6-116 11-195 11z m0 0c-79 0-144-5-195-11-103-13-156-30-156-30 0 0-33-48-59-132-13-43-23-97-23-160 0-63 10-116 23-160 26-84 59-132 59-132 0 0 53-17 156-30 51-6 116-11 195-11l-200 100-167 100 0 266 167 100 200 100z m-200-100l0-100 200 34 200-34 0 100-400 0z m400-100l-400-266 0-100 400 0 0 100 167 0-100 133 100 133-167 0z m-400-266l-68 133-99-133 167 0z m-68 133l68 133-167 0 99-133z" horiz-adv-x="1000" />

<glyph glyph-name="sapphire" unicode="&#xe80f;" d="M200 717c-37 0-67-30-67-67l0-600c0-37 30-67 67-67l600 0c37 0 67 30 67 67l0 600c0 37-30 67-67 67l-600 0z m0-67l133-33 334 0 133 33-33-133 0-334 33-133-133 33-334 0-133-33 33 133 0 334-33 133z m33-133l100-167 34 133-134 34z m134-34l133 34-167 100 34-134z m133 34l133-34 34 134-167-100z m133-34l34-133 100 167-134-34z m34-133l-34-133 134-34-100 167z m-34-133l-133-34 167-100-34 134z m-133-34l-133 34-34-134 167 100z m-133 34l-34 133-100-167 134 34z" horiz-adv-x="1000" />

<glyph glyph-name="silver-ring" unicode="&#xe810;" d="M671 750c-35-1-72-11-112-29-79-34-167-96-251-179-83-83-145-172-179-251-17-40-28-77-29-112-1-34 8-68 32-92 19-19 98-98 98-98l1 1c2-3 3-6 6-8 24-24 58-33 92-32 35 1 72 11 112 29 79 34 167 96 251 179 83 84 145 172 179 251 18 40 28 77 29 112 1 34-8 68-32 92-2 2-4 4-6 5l0 1c0 0-80 80-99 99-24 24-58 33-92 32z m2-67c22 1 35-4 43-12 6-6 17-17 29-29-26-4-53-13-81-25-79-35-168-97-251-180-83-83-145-172-180-251-12-28-20-55-25-81-12 13-23 23-29 29-8 8-13 21-12 43 1 23 8 53 23 88 30 68 87 151 166 230 78 78 161 136 230 165 34 15 64 23 87 23z m-73-40a36 21 22.09 0 1-20-4 36 21 22.09 0 1-26-33 36 21 22.09 0 1 41-6 36 21 22.09 0 1 26 33 36 21 22.09 0 1-21 10z m159-66c0 0 0 0 0 0-21-84-89-193-191-295-101-102-211-170-295-191 3 19 10 43 22 69 29 68 87 152 165 230 78 78 162 136 230 165 26 12 50 19 69 22z m-345-59a65 29 45 0 1-52-30 65 29 45 0 1-25-66 65 29 45 0 1 66 25 65 29 45 0 1 26 67 65 29 45 0 1-15 4z m-178-218a36 21 63.26 0 1-29-24 36 21 63.26 0 1 2-42 36 21 63.26 0 1 35 23 36 21 63.26 0 1-2 41 36 21 63.26 0 1-6 2z" horiz-adv-x="1000" />

<glyph glyph-name="sparkling-diamond" unicode="&#xe811;" d="M500 850a33 33 0 0 1-33-33 33 33 0 0 1 33-34 33 33 0 0 1 33 34 33 33 0 0 1-33 33z m-200-33a33 33 0 0 1-33-34 33 33 0 0 1 33-33 33 33 0 0 1 33 33 33 33 0 0 1-33 34z m400 0a33 33 0 0 1-33-34 33 33 0 0 1 33-33 33 33 0 0 1 33 33 33 33 0 0 1-33 34z m-600-67a33 33 0 0 1-33-33 33 33 0 0 1 33-34 33 33 0 0 1 33 34 33 33 0 0 1-33 33z m800 0a33 33 0 0 1-33-33 33 33 0 0 1 33-34 33 33 0 0 1 33 34 33 33 0 0 1-33 33z m-167-66a33 33 0 0 1-7-1l-454 0a33 33 0 0 1-5 1 33 33 0 0 1-29-16l-194-226a33 33 0 0 1 2-52l430-430a33 33 0 0 1 0 0l0 0a33 33 0 0 1 6-5 33 33 0 0 1 0 0 33 33 0 0 1 2-1 33 33 0 0 1 1 0 33 33 0 0 1 12-4 33 33 0 0 1 4 0 33 33 0 0 1 1 0 33 33 0 0 1 2 0 33 33 0 0 1 0 0 33 33 0 0 1 0 0 33 33 0 0 1 3 1 33 33 0 0 1 3 0 33 33 0 0 1 0 1 33 33 0 0 1 1 0 33 33 0 0 1 5 2 33 33 0 0 1 1 0 33 33 0 0 1 2 2 33 33 0 0 1 0 0 33 33 0 0 1 5 4l0 0a33 33 0 0 1 0 0l430 430a33 33 0 0 1 2 52l-193 225a33 33 0 0 1-30 17z m-233-91l102-143-204 0 102 143z m248-12l113-131-150 0 37 131z m-496 0l37-131-150 0 113 131z m130-198l236 0-118-307-118 307z" horiz-adv-x="1000" />

<glyph glyph-name="tiara" unicode="&#xe812;" d="M729 750c-75 0-230-99-380-249-180-180-286-366-237-415l126-126c0 0 0 0 0 0l0 0c37-37 170 31 317 159 24 20 26 57 5 78-20 19-52 19-74 0-120-106-191-141-232-124 39 79 121 187 228 295 108 107 216 189 295 228 18-41-18-112-124-232-20-22-20-54 0-74 21-21 57-19 78 5 128 147 196 280 159 317-2 2-4 3-6 5 2-1 4-3 6-5l-126 126c-8 8-20 12-35 12z m-4-67l25-25c-101-50-220-149-315-243-91-91-167-186-216-267-7-11-17-28-27-48l-25 26c3 40 70 169 229 328 152 151 282 224 329 229z" horiz-adv-x="1000" />

<glyph glyph-name="topaz" unicode="&#xe813;" d="M500 817c0 0-300-335-300-572 0-163 134-295 300-295 166 0 300 132 300 295 0 233-300 572-300 572z m0-67l67-133 66-34-33-66 100-67 33-133-33-134-33-100-34-66-66 33-67-67-67 67-66-33-34 66-33 100-33 134 33 133 100 67-33 66 66 34 67 133z m-67-133l-33-100 100 66-67 34z m67-34l100-66-33 100-67-34z m100-66l-200-367 100-33 100 33 100 33-67 100 100 34-133 200z m0-367l-33-100 100 33-67 67z m-33-100l-67 67-67-67 134 0z m-134 0l-33 100-67-67 100-33z m-33 100l-33 133-67-100 100-33z m-33 133l33 234-133-200 100-34z" horiz-adv-x="1000" />

<glyph glyph-name="bangles-1" unicode="&#xe814;" d="M1196 636c-60 0-124-16-191-43-135-55-282-157-420-296-137-139-238-289-292-425-27-67-42-132-42-192 0-61 18-120 60-163 6-6 12-11 19-17l151-150a63 63 0 0 1 3-4c1-1 1-1 2-1l8-8a63 63 0 0 1 8-7 63 63 0 0 1 10-13l168-168a63 63 0 0 1 4-4c0-1 1-1 1-1l8-8a63 63 0 0 1 32-18c37-22 79-37 124-39 62-2 128 12 197 38 139 52 290 153 428 292 138 140 236 292 286 431 43 119 49 235-3 321a63 63 0 0 1-17 28l-5 5c-2 2-3 5-5 8a63 63 0 0 1-13 10l-159 158a63 63 0 0 1-7 6 63 63 0 0 1-10 14l-5 5c-2 2-3 5-5 8a63 63 0 0 1-14 10l-147 147c-4 5-8 10-13 15-42 42-101 60-161 61z m214-293l33-32c26-30 37-92 14-179-13 30-43 51-79 51-7 0-14-1-20-2 6 13 12 26 17 39 17 42 29 83 35 123z m-186-151c-51-98-129-207-230-309-100-100-205-179-300-231 46 107 120 219 219 320 98 99 207 173 311 220z m366-30l53-53c26-30 37-94 12-185-13 30-44 51-79 51-19 0-37-6-51-16 14 28 26 55 35 82 15 41 25 82 30 121z m-292-94c13-30 44-51 80-51 15 0 29 4 41 11-41-92-108-193-196-289 4 9 6 20 6 31 0 48-38 88-87 90 62 69 114 139 156 208z m192-177c0-46 39-83 86-83 14 0 27 4 39 10-42-89-107-187-192-280 3 9 6 19 6 30 0 50-41 91-91 91-7 0-14-1-20-2 69 76 127 155 172 234z m-442-129c4-46 43-83 90-83 12 0 24 2 34 7-88-87-182-156-270-204a83 82 90 0 1-48 122c65 44 130 97 194 158z m201-176c-1-6-2-12-2-18 0-50 41-90 91-90 12 0 23 2 33 6-99-97-205-172-301-220 8 13 13 29 13 45 0 46-37 83-82 83-2 0-3-1-5-1 85 50 171 116 253 195z m-497-44a83 82 90 0 1 68-99c-6-3-12-5-17-7-58-22-110-32-150-31-39 2-63 12-79 28l-30 31c38 7 78 19 119 35 29 12 59 27 89 43z m183-184c-10-14-16-31-16-49 0-40 28-73 65-81-50-17-96-25-131-24-39 1-63 12-79 28l-54 53c41 6 83 17 127 33 29 11 58 25 88 40z" horiz-adv-x="1000" />

<glyph glyph-name="bracelet-1" unicode="&#xe815;" d="M875 642a125 125 0 0 1-118-84c-50-17-98-40-142-67a188 188 0 0 1-94 26 188 188 0 0 1-163-282c-18-30-35-62-50-96a125 125 0 0 1-54-219c-3-23-4-47-4-71 0-10 1-20 1-30a125 125 0 0 1 39-211c18-51 40-100 68-145a188 188 0 0 1 163-280 188 188 0 0 1 91 24c46-28 95-51 146-68a125 125 0 0 1 117-81 125 125 0 0 1 92 41c12 0 23-2 35-2 24 0 47 2 71 4a125 125 0 0 1 94-43 125 125 0 0 1 121 96c35 15 69 33 102 52a188 188 0 0 1 89-23 188 188 0 0 1 165 277c28 47 52 97 70 149a125 125 0 0 1 38 207c0 11 2 22 2 33 0 25-2 50-4 75a125 125 0 0 1-55 214c-14 35-32 69-52 101a188 188 0 0 1-164 278 188 188 0 0 1-92-24c-31 18-64 36-98 50a125 125 0 0 1-122 99 125 125 0 0 1-96-45c-23 2-46 3-69 3-11 0-22-1-33-2a125 125 0 0 1-94 44z m127-167c16 0 32-1 48-2a125 125 0 0 1 117-81 125 125 0 0 1 83 32c19-8 37-17 55-27a188 188 0 0 1 174-255 188 188 0 0 1 69 13c10-17 19-35 27-53a125 125 0 0 1 51-204c1-16 3-33 3-49 0-2-1-4-1-5a125 125 0 0 1-40-216c-11-29-23-57-38-84a188 188 0 0 1-71 14 188 188 0 0 1-173-257c-18-10-36-19-54-27a125 125 0 0 1-85 34 125 125 0 0 1-118-83c-16-1-31-3-47-3-3 0-6 1-9 1a125 125 0 0 1-118 85 125 125 0 0 1-96-44c-29 11-57 23-84 38a188 188 0 0 1-174 256 188 188 0 0 1-68-13c-15 27-27 56-38 85a125 125 0 0 1-40 213c0 2 0 4 0 6 0 17 1 34 3 51a125 125 0 0 1 49 199c8 19 17 37 27 55a188 188 0 0 1 67-12 188 188 0 0 1 175 254c27 15 56 27 85 38a125 125 0 0 1 94-42 125 125 0 0 1 118 83c3 0 6 0 9 0z" horiz-adv-x="1000" />

<glyph glyph-name="diamond-1" unicode="&#xe816;" d="M563-213l-393-2c12-155 67-298 152-418l324 226-83 194z m207-167l230-98 223 96c1 1 2 4 4 5s4 3 5 4l96 223-96 223c-2 1-4 2-5 4s-3 4-4 5l-218 94c-2 0-3-1-5-1s-3 1-5 1l-224-96-95-220c1-3 1-6 1-10 0-3 0-7-1-10l94-220z m-401 773c-113-132-186-299-199-483l393 2 86 201-280 280z m1068-606l-86-200 280-280c113 131 185 298 199 480h-393z m106 694c-131 113-298 186-481 199v-393l201-86 280 280z m-606-194v393c-182-13-349-86-480-199l280-280 200 86z m0-874l-205 88-329-231c138-142 325-235 534-250v393z m414 700l86-201h393c-14 183-86 350-199 481l-280-280z m-88-614l-201-86v-393c183 13 350 86 481 199l-280 280z" horiz-adv-x="1000" />

<glyph glyph-name="diamond-heart-1" unicode="&#xe817;" d="M667 584l0-329 332-342 334 342 0 329-333-333-333 333z m-125-2l-445-503 304 0 141 164 0 339z m916 0l0-339 141-164 304 0-445 503z m-70-449l-345-353c-11-12-28-19-44-19l0 0c-17 0-33 7-45 19l-343 352-89-104 477-504 479 504-90 105z m-1290-179l839-879 0 332-518 547-321 0z m1482 0l-518-544 0-335 840 879-322 0z" horiz-adv-x="1000" />

<glyph glyph-name="diamond-3" unicode="&#xe818;" d="M1053 517c1-2 280-396 342-483 8-11 20-17 33-17 53 0 197 0 290 0 15 0 29 9 36 22 7 14 5 31-5 43-103 131-327 413-327 413-12 14-29 22-47 22h-322z m158-437c8-13 9-29 2-42-7-13-21-21-36-21-95 0-259 0-354 0-15 0-29 8-36 21-7 13-6 29 2 42 50 73 132 195 178 262 7 11 20 18 33 18 13 0 26-7 33-18 46-67 128-189 178-262z m-264 437h-322c-18 0-35-8-47-22 0 0-223-282-326-413-9-12-11-29-5-43 7-13 21-22 37-22 92 0 235 0 288 0 13 0 25 6 33 17 62 87 341 481 342 483z m53-1417c0 0-181 562-237 739-4 12-2 26 5 36 8 10 20 17 33 17 98 0 300 0 398 0 13 0 25-7 33-17 7-10 9-24 6-36-57-177-238-739-238-739z m400 792c-1 0-3-2-4-3 0 0 0 0 0 0l-271-789 710 789c1 0 1 0 1 0 0 1 0 1 0 2 0 0-1 1-1 1-39 0-396 0-435 0z m-796-3c-1 1-2 3-4 3-38 0-394 0-433 0 0 0-1-1-1-1s0-1 0-2c0 0 0 0 0 0l709-789-271 789c0 0 0 0 0 0z" horiz-adv-x="1000" />

<glyph glyph-name="earring-1" unicode="&#xe819;" d="M764-705c-3 2-6 4-9 6-48 54-107 84-176 91-22 2-39 22-37 45 2 23 22 40 45 38 63-6 120-28 170-65-3 62-5 125-6 189-59 62-171 84-251 84-23 0-42 19-42 42s19 42 42 42c78 0 174-18 250-63 0 77 1 153 4 227-51 39-184 89-295 86 0 0 0 0-1 0-22 0-41 18-41 40-1 23 17 42 40 43 102 3 222-32 301-74 7 134 19 260 36 368-60 25-124 39-190 39-267 0-476-205-476-467 0-636 554-954 676-1016-18 99-31 217-40 345z m903 1512c-160 0-291-130-291-291 0-57 17-111 46-156l-36-35c-88 68-201 108-327 108-61 0-123-11-180-32-18-108-30-235-37-372 96 42 235 71 325 71 23 0 41-19 41-42s-18-41-41-41c-103 0-259-40-330-82-3-77-4-155-4-233 82 42 188 65 250 65 23 0 42-19 42-42s-19-42-42-42c-71 0-189-34-249-78 1-61 3-122 6-181 47 28 99 45 156 51 23 2 43-15 45-38 3-23-14-43-37-45-61-6-113-28-159-66 9-143 24-275 44-381 79 42 688 393 688 981 0 119-38 225-103 310l36 36c45-30 99-47 157-47 161 0 291 131 291 291 0 161-130 291-291 291z m0-457c-23 0-45 5-65 13l88 89c25 24 25 64 1 88-25 24-64 25-89 0l-88-88c-8 20-13 41-13 64 0 92 74 166 166 166s166-74 166-166c0-91-74-166-166-166z" horiz-adv-x="1000" />

<glyph glyph-name="earrings" unicode="&#xe81a;" d="M396 746c-120 0-218-92-228-208l-64 0c-34 0-62-28-62-63 0-34 28-62 62-62l83 0c58 0 105 46 105 104 0 57 46 104 104 104 57 0 104-47 104-104l0-309a125 125 0 0 1-42-177l-326-653c-12-24-8-53 11-72l375-375c1-1 2-1 3-2l0 1053a125 125 0 0 1 41-7 125 125 0 0 1 42 7l0-1053c1 1 2 1 3 2l375 375c19 19 23 48 11 72l-326 653a125 125 0 0 1-42 177l0 309c0 126-103 229-229 229z m958 0c-119 0-218-92-228-208l-64 0c-34 0-62-28-62-63 0-34 28-62 62-62l84 0c57 0 104 46 104 104 0 57 47 104 104 104 58 0 104-47 104-104l0-309a125 125 0 0 1-41-177l-327-653c-12-24-7-53 12-72l375-375c0-1 1-1 2-2l0 1053a125 125 0 0 1 42-7 125 125 0 0 1 41 7l0-1053c1 1 2 1 3 2l375 375c19 19 24 48 12 72l-327 653a125 125 0 0 1-42 177l0 309c0 126-102 229-229 229z" horiz-adv-x="1000" />

<glyph glyph-name="emerald-1" unicode="&#xe81b;" d="M646 156l-271 163 0-938 271 163z m52 115l52 51-139 270-171-166z m606-841l-50-49 135-275 192 186z m-547-38l-46 45-271-163 171-166 146 284z m108 979l270 0 140 271-549 0z m439-101l277 138-191 185-140-271z m-164-941l-275 0-139-271 548 0z m214 826l0-610 274-137 0 884z m-583 13l0-616 102-98 276 0 80 78 0 636-80 78-298 0z" horiz-adv-x="1000" />

<glyph glyph-name="gold-hallmark" unicode="&#xe81c;" d="M1902 173c-1 3-3 5-5 7l-5 11c-11 18-23 36-36 54-149 190-485 313-856 313s-707-123-856-314c-13-17-25-35-37-55l-10-19c-4-8-7-17-10-26-43-83-66-179-66-273 0-114 30-219 88-311 8-15 17-28 24-37 149-203 497-340 867-340s718 137 867 340c7 10 16 22 23 34 59 95 89 200 89 314 0 112-26 217-77 302z m-1034 218c81 10 156 10 229 0 34-4 58-36 54-70-5-31-31-54-62-54-3 0-6 0-9 0-62 8-127 8-198 0-34-4-65 21-69 55-4 34 21 65 55 69z m893-501c-2-7-5-13-10-18 1 0 1 0 1-1-121-140-408-229-752-229-343 0-631 89-752 229 0 1 1 1 1 1-5 5-8 11-10 18l-30 161c-4 22 11 44 33 48 23 5 45-10 49-33l25-132c141 104 387 166 684 166s543-62 684-166l25 132c4 23 26 38 49 33 22-4 37-26 33-48l-30-161z" horiz-adv-x="1000" />

<glyph glyph-name="leather-bracelet-1" unicode="&#xe81d;" d="M1368 641c-197 12-485-137-754-406-357-357-503-751-338-915 0-1 0-1 0-1 0 0 0 0 0 0l199-199c3-2 6-4 9-6 45-38 103-58 172-58 196 0 474 148 732 406 346 346 492 725 353 899-2 3-3 6-6 9l-7 7c0 0-1 1-1 2-1 0-1 0-1 0l-183 182c-1 1-3 2-4 3-3 3-5 7-9 10-41 41-96 63-162 67z m-20-124c41 0 73-10 94-31 1-1 1-1 1-2 11-10 21-23 28-40 27-64 7-158-59-280-2-3-4-6-6-8-65-134-171-277-303-409-138-139-281-239-406-300-3-3-6-6-10-9-88-47-161-71-219-71-23 0-44 4-62 12-17 7-30 17-40 27 0 1-1 1-2 2-94 94 31 431 339 739 241 241 498 370 645 370z m41-97c-178-54-389-191-578-380-189-189-327-402-381-580 3-2 6-4 11-6 14-5 51-10 127 20 56 147 175 321 331 477 157 157 330 275 477 332 30 75 25 112 20 126-2 5-5 9-7 11z m110-237c16 1 32-8 39-24 52-113 67-223 77-326 3-22-14-43-37-45-1 0-3-1-4-1-21 0-39 16-41 38-10 95-24 197-71 299-9 21 0 46 21 56 5 2 10 3 16 3z m-188-333c16 1 32-8 39-24 33-70 50-176 46-290-1-23-20-40-42-40 0 0-1 0-1 0-23 1-41 20-41 43 4 100-10 194-37 251-10 21-1 46 20 56 5 2 10 4 16 4z m-244-250c16-2 30-13 35-29 34-109 38-167 22-269-3-21-21-35-41-35-2 0-4 0-6 0-23 4-38 25-35 48 14 89 10 135-19 231-7 22 5 45 27 52 6 2 11 2 17 2z m-283-167c16-3 30-16 33-33 19-85 19-164 0-247-4-19-21-32-40-32-3 0-6 0-9 1-23 5-37 27-32 50 16 71 16 136 0 211-5 22 9 44 32 49 5 1 11 2 16 1z" horiz-adv-x="1000" />

<glyph glyph-name="necklace-1" unicode="&#xe81e;" d="M938 683a63 63 0 0 1 0-125 63 63 0 0 1 0 125z m125 0a63 63 0 0 1 0-125 63 63 0 0 1 0 125z m-250-41a63 63 0 0 1 0-125 63 63 0 0 1 0 125z m375 0a63 63 0 0 1 0-125 63 63 0 0 1 0 125z m-500-42a63 63 0 0 1 0-125 63 63 0 0 1 0 125z m625 0a63 63 0 0 1 0-125 63 63 0 0 1 0 125z m-750-42a63 63 0 0 1 0-125 63 63 0 0 1 0 125z m875 0a63 63 0 0 1 0-125 63 63 0 0 1 0 125z m-1000-83a63 63 0 0 1 0-125 63 63 0 0 1 0 125z m1125 0a63 63 0 0 1 0-125 63 63 0 0 1 0 125z m-1209-125a63 63 0 0 1 0-125 63 63 0 0 1 0 125z m1292 0a63 63 0 0 1 0-125 63 63 0 0 1 0 125z m-1250-125a63 63 0 0 1 0-125 63 63 0 0 1 0 125z m1208 0a63 63 0 0 1 0-125 63 63 0 0 1 0 125z m-1104-125a125 125 0 0 1 0-250 125 125 0 0 1 0 250z m1000 0a125 125 0 0 1 0-250 125 125 0 0 1 0 250z m-792-167c-92 0-166-74-166-166 0-92 74-167 166-167 37 0 70 12 98 32-9-23-14-48-14-74 0-115 93-208 208-208 115 0 208 93 208 208 0 26-5 51-14 74 28-20 61-32 98-32 92 0 166 75 166 167 0 92-74 166-166 166-92 0-167-74-167-166 0-18 3-34 8-50-36 31-82 50-133 50-51 0-97-19-133-50 5 16 8 32 8 50 0 92-75 166-167 166z m292-584c-7 0-13-2-17-8l-146-208c-5-8-5-18 1-25l146-187c4-6 10-9 16-9 6 0 13 3 16 9l146 187c6 7 6 17 1 25l-146 208c-4 6-10 8-17 8z" horiz-adv-x="1000" />

<glyph glyph-name="opal" unicode="&#xe81f;" d="M622-108l-186 485c-84-137-136-304-143-485h329z m65-146l-159-414 394 121z m355-369v-399c180 13 342 108 461 257l-461 142z m-749 431c7-181 59-348 143-485l186 485h-329z m707 413l-293-366 293-367 293 367z m378-413l186-485c84 137 136 304 143 485h-329z m-462 441l-388 119 157-407z m791-357c-7 181-59 348-143 485l-186-485h329z m-665 431l461 142c-119 149-281 244-461 257v-399z m-84-946l-461-142c119-149 281-244 461-257v399z m0 946v399c-180-13-342-108-461-257l461-142z m357-362l157 407-388-119z m-2-216l-235-292 394-121z" horiz-adv-x="1000" />

<glyph glyph-name="piercing-1" unicode="&#xe820;" d="M1021 600c-401 0-729-316-729-707 0-283 171-526 418-639 12-161 147-289 311-289 164 0 299 128 311 289 246 113 418 356 418 639 0 391-328 707-729 707z m0-125c335 0 604-261 604-582 0-219-125-409-311-509-44 120-159 206-293 206-135 0-250-86-293-206-186 100-311 290-311 509 0 321 268 582 604 582z" horiz-adv-x="1000" />

<glyph glyph-name="ring-back-view-1" unicode="&#xe821;" d="M1000 683c-190 0-348-143-372-327-299-96-503-316-503-581 0-181 105-343 264-455 160-112 375-178 611-178 236 0 451 66 610 178 160 112 265 274 265 455 0 247-189 451-454 556-16 8-32 15-49 22-22 185-181 330-372 330z m0-250c68 0 125-56 125-125 0-68-57-125-125-125-69 0-125 57-125 125 0 69 56 125 125 125z m-365-210c39-165 188-290 365-290 176 0 324 123 364 287 1-1 1-1 2-1 67-32 125-72 168-117 60-60 91-125 91-183 0-90-59-177-172-246-112-69-274-115-453-115-180 0-341 46-453 115-113 69-172 156-172 246 0 115 93 234 260 304z" horiz-adv-x="1000" />

<glyph glyph-name="ring-details-1" unicode="&#xe822;" d="M520 726a63 63 0 0 1-62-63c0-64 16-148 69-216-120-130-194-303-194-493 0-178 67-340 174-467l-287-287a63 63 0 1 1 89-88l287 287c126-107 288-174 466-174 191 0 363 74 492 194 68-52 139-69 217-69a63 63 0 1 1 0 125c-62 0-90 5-133 37 56 73 99 157 124 248a63 63 0 0 1 9 30c13 53 21 108 21 164 0 402-328 729-730 729-166 0-319-56-442-151-25 40-37 93-37 131a63 63 0 0 1-63 63z m387-190c150-336 386-603 726-772-59-179-199-321-377-382a63 63 0 0 1-2 1c-368 160-604 431-754 791 70 177 221 312 407 362z m-105-145c-30 3-62-6-87-27-43-37-54-97-30-145-6 3-11 7-13 9-15 16-41 15-56 0-15-15-16-38-3-54 1-1 2-2 3-2 38-39 140-87 253 8 51 43 57 119 15 169-22 25-51 40-82 42z m-7-79c11-1 20-6 27-14 15-17 12-42-4-57-17-14-42-12-57 5-14 17-12 42 5 57 9 7 19 10 29 9z m158-160c-31 3-62-7-87-28-44-36-54-97-30-145-6 4-11 8-13 10-16 15-41 15-56 0-15-15-16-39-3-54l2-3c39-38 141-86 254 9 50 42 57 118 14 169-21 25-50 39-81 42z m-7-80c10 0 20-5 27-14 14-17 12-42-5-56-16-14-42-12-56 5-14 17-12 42 5 56 8 7 19 10 29 9z m184-143c-30 2-62-7-87-28-43-36-54-97-30-145-6 4-11 8-13 10-15 15-41 15-56 0-15-15-16-39-2-54 0-1 1-2 2-3 38-38 140-86 253 9 51 42 57 118 15 169-22 25-51 39-82 42z m-7-80c11-1 20-5 28-14 14-17 11-42-5-56-17-14-42-12-57 5-14 17-12 42 5 56 9 7 19 10 29 9z m263-108c-31 3-63-6-88-27-43-37-54-97-30-145-5 3-10 7-13 9-15 16-40 16-56 0-15-15-15-38-2-54 1-1 1-2 2-2 38-39 140-87 253 8 51 43 57 119 15 169-21 25-51 40-81 42z m-7-79c10-1 20-6 27-14 14-17 12-42-5-57-17-14-42-12-56 5-14 17-12 42 5 57 8 7 19 10 29 9z m-254-20a42 42 0 0 1 0-84 42 42 0 0 1 0 84z" horiz-adv-x="1000" />

<glyph glyph-name="ring-front-view-1" unicode="&#xe823;" d="M1000 517c-459 0-833-262-833-584 0-210 159-402 417-505 0 1-1 3-1 5 0 43 7 84 19 122-193 86-310 228-310 378 0 253 317 459 708 459 391 0 708-206 708-459 0-150-117-292-310-378 12-38 19-79 19-122 0-2-1-4-1-5 258 103 417 295 417 505 0 322-373 584-833 584z m-42-753c-60-8-116-32-162-68l120-120c13 8 27 14 42 18l0 170z m84 0l0-170c15-4 29-10 42-18l120 120c-46 36-102 60-162 68z m221-127l-120-120c8-13 14-27 18-42l170 0c-8 61-32 116-68 162z m-526 0c-36-46-60-101-67-162l169 0c4 15 10 29 18 42l-120 120z m263-120a83 83 0 0 1 0-167 83 83 0 0 1 0 167z m-330-125c7-61 31-117 67-163l120 120c-8 13-14 27-18 43l-169 0z m491 0c-4-16-10-30-18-43l120-120c36 46 60 102 68 163l-170 0z m-245-102l-120-120c46-36 102-60 162-67l0 170c-15 3-29 9-42 17z m168 0c-13-8-27-14-42-17l0-170c60 7 116 31 162 67l-120 120z" horiz-adv-x="1000" />

<glyph glyph-name="ring-side-view-1" unicode="&#xe824;" d="M800 683c-19 0-36-8-48-22l-154-188c-22-27-18-66 8-88l354-291c12-10 26-15 40-15 14 0 28 5 40 14l354 292c13 11 21 27 23 44 1 17-5 33-16 46l-168 188c-12 13-29 20-46 20l-387 0z m-217-385c-184-131-298-344-298-572 0-389 321-705 715-705 394 0 714 316 714 705 0 228-113 441-297 572l-100-83c168-106 272-290 272-489 0-320-264-580-589-580-325 0-590 260-590 580 0 199 105 383 273 489l-100 83z" horiz-adv-x="1000" />

<glyph glyph-name="ruby-1" unicode="&#xe825;" d="M1390-191l-74 171-316 57-316-57-74-172 74-171 315-57 316 64z m-328 343l267-48 266 310c-37 9-113 24-240 40-91 12-189 18-293 20v-322z m-561-281l69 159-261 304c-30-45-70-116-98-207-25-81-39-168-43-256h333z m929 159l69-159h333c-4 88-18 175-43 256h0c-28 91-68 162-98 207l-261-304z m-759 74l266 48v322c-103-2-201-8-292-20-127-16-203-31-240-40l266-310z m827-358l-69-153 264-265c30 46 69 115 96 203 21 69 35 141 41 215h-332z m-172-227l-264-53v-282c104 2 202 8 293 20 133 17 210 33 245 41l-274 274z m-389-55l-269 49-268-268c34-8 111-24 245-41 91-11 189-18 292-20v280z m-369 126l-67 156h-331c6-74 20-146 41-215 27-88 66-157 96-203l261 262z" horiz-adv-x="1000" />

<glyph glyph-name="sparkling-diamond-1" unicode="&#xe826;" d="M999 726a63 63 0 0 1-61-63l0-125a63 63 0 1 1 125 0l0 125a63 63 0 0 1-64 63z m-520-42a63 63 0 0 1-52-98l84-125a63 63 0 1 1 104 70l-84 125a63 63 0 0 1-52 28z m1041 0a63 63 0 0 1-51-28l-83-125a63 63 0 1 1 104-70l83 125a63 63 0 0 1-53 98z m-874-334c-18 0-34-7-46-20l-398-438 427 0c1 3 3 7 4 10l259 448-246 0z m462 0l259-448c2-3 3-7 4-10l428 0-399 438c-11 13-28 20-46 20l-246 0z m-108-63l-228-395 456 0-228 395z m-796-520l659-642-234 641c0 0 0 0 0 1l-425 0z m558 0l238-652 238 652-476 0z m609 0c0-1 0-1 0-1l-234-641 659 642-425 0z" horiz-adv-x="1000" />

<glyph glyph-name="silver-ring-1" unicode="&#xe827;" d="M1337 600c-25 1-50-1-76-5-102-13-213-57-327-125a63 63 0 0 1-16-13c-34 3-67 8-102 2-97-17-196-69-278-150-83-82-136-180-153-276-6-34-1-68 3-101a63 63 0 0 1-6-8c-65-110-109-222-125-325-15-104-2-205 67-273a63 63 0 0 1 1 0l236-229a63 63 0 0 1 17-13c47-43 110-64 176-67 69-3 144 12 223 41 157 58 328 172 486 330 157 158 271 330 329 487 51 140 61 278-5 374a63 63 0 0 1-13 19l-245 257a63 63 0 0 1-1 1c-50 49-118 72-191 74z m-5-125c49-1 85-15 108-38l79-82c-24-2-49-6-73-12-91-20-189-63-287-124-6 64-30 124-76 169-5 4-11 5-16 9 77 38 151 66 211 75 20 2 38 3 54 3z m-495-139c46-2 83-40 83-87 0-48-39-87-86-87-48 0-87 39-87 87 0 31 16 58 40 74 17 6 34 10 50 13z m683-107c-16-146-133-371-330-568a63 63 0 0 1 0 0c-197-197-421-316-566-331 1 15 3 30 7 46 21 96 78 215 165 335a63 63 0 0 1 4 7c72 25 141 69 202 129 63 62 108 133 134 207 121 88 241 146 337 168 17 3 32 6 47 7z m-1070-449c3-4 4-9 7-12 48-47 110-71 176-75-61-100-104-199-124-290-5-24-9-48-11-72l-86 84c-29 29-43 84-31 165 9 59 35 129 69 200z" horiz-adv-x="1000" />

<glyph glyph-name="tiara-1" unicode="&#xe828;" d="M1823 370l-250 250c-152 152-580-138-914-471-333-334-623-762-471-913l250-251c0 0 0 0 0 0 27-27 62-38 102-38 193 0 507 258 614 350 37 32 58 77 60 125 2 46-16 90-48 122-62 62-163 64-231 3-45-40-85-73-120-101-101-113-177-235-222-353-6-17-22-27-39-27-5 0-10 1-14 2-22 9-33 33-25 54 47 125 127 254 232 373 70 92 158 193 266 300 98 99 191 180 276 248 1 1 2 3 3 5 124 111 259 196 390 245 21 8 45-3 54-24 8-22-3-46-25-54-113-43-230-115-340-210-30-38-66-82-110-132-61-68-59-170 3-232 30-30 72-47 116-47 2 0 4 0 6 0 48 1 93 23 124 60 113 129 467 563 313 716z m-1281-895c-81 0-146 65-146 146s65 146 146 146 146-66 146-146-66-146-146-146z m311 340c-100 0-181 82-181 182 0 100 81 181 181 181 100 0 182-81 182-181 0-100-82-182-182-182z m376 327c-80 0-146 65-146 146s66 145 146 145 146-65 146-145-65-146-146-146z" horiz-adv-x="1000" />

<glyph glyph-name="topaz-1" unicode="&#xe829;" d="M1083 645l0-470 123-82 185 139c-124 199-261 359-308 413z m-125-1c-46-53-182-215-307-413l184-138 123 82 0 469z m498-520l-179-134 45-223 282 0c-29 118-84 241-148 357z m-869-1c-65-115-120-238-149-356l282 0 44 223-177 133z m434-56l-131-88-55-273 71-284 115-28 115 28 71 284-55 273-131 88z m-603-425c-1-13-1-25-1-37 0-160 66-305 172-411l196 196-63 252-304 0z m902 0l-63-252 196-196c106 106 172 251 172 411 0 12-1 24-1 37l-304 0z m-447-340l-186-187c79-51 172-85 271-95l0 260-85 22z m295 0l-85-22 0-260c100 10 192 44 272 95l-187 187z" horiz-adv-x="1000" />
</font>
</defs>
</svg>
